=MnM's= Index du Forum
S’enregistrerRechercherFAQMembresGroupesConnexion


 Bienvenue 
Bonjour Invité, la TeaM=MnM's= te shouhaite une agréable lecture. 
Pour revenir à l'accueil clicker ICI
TV JAPAN Tengen Toppa Gurren Lagann 21 RAW BS J 1280x720 Di

 
Répondre au sujet    =MnM's= Index du Forum » "JEU DU FORUM" » Trouvez le film Sujet précédent
Sujet suivant
TV JAPAN Tengen Toppa Gurren Lagann 21 RAW BS J 1280x720 Di
Auteur Message
yamilsha
Recrut
Recrut

Hors ligne

Inscrit le: 05 Avr 2016
Messages: 121
Localisation: Milano
Masculin

Message TV JAPAN Tengen Toppa Gurren Lagann 21 RAW BS J 1280x720 Di Répondre en citant



TV JAPAN Tengen Toppa Gurren Lagann 21 RAW BS J 1280x720 DivX651 No Clock Avi > urlin.us/24ocn









TV JAPAN Tengen Toppa Gurren Lagann 21 RAW BS J 1280x720 DivX651 No Clock Avi

ced5a5f5e9
All Rights Reserved. . TV-JAPAN Tengen Toppa Gurren-Lagann 04 RAW (BS-J 1280x720 DivX651 No-Clock) avi in Anime 442.97 MB 1 9years 0 0 . TV-JAPAN Tengen Toppa Gurren-Lagann 24 RAW (BS-J HD 1280x720 DivX651 No-Clock) avi in Anime 792.87 MB 1 8years 0 0 . [CWY net] Tengen Toppa Gurren Lagann Gekijouban Zenyasai DVD Special - Viral's Sweet Dream (v2) avi in Anime 18.9 MB 1 7years 0 3 . Main Technical Comments TV-JAPAN Gurren Lagann 06 RAW (BS-J 1280x720 DivX651 No-Clock) avi (Size: 491.61 MB) [TV-JAPAN] Tengen Toppa Gurren Lagann 06 RAW (BS-J 1280x720 DivX651 No-Clock).avi 491.61 MB Description #TV-JAPAN at irc.rizon.net Sharing Widget Download torrent 491.61 MB seeders:0 leechers:0 TV-JAPAN Gurren Lagann 06 RAW (BS-J 1280x720 DivX651 No-Clock) avi html bbcode To share this torrent use the code below and insert it into comments, status messages, forum posts or your signature. 0 0 report TV-JAPAN Gurren Lagann 06 RAW (BS-J 1280x720 DivX651 No-Clock) avi seeders: 0 leechers: 0 updated: 28 Apr 2016, 07:51 Download torrent Added 12 May 2007, 18:00 in Anime Downloaded 0 times. [TV-JAPAN] Tengen Toppa Gurren-Lagann 21 RAW (BS-J 1280x720 DivX651 No-Clock) avi in Anime 506.79 MB 1 8years 0 0 .

Graphiexe::Graphiexe Related::Graphic DesignPage 1 of 1. . 491.61 MB CB3731AAF9C9C8E3108AF55AA75E468AE12B716F 00 0/10 bbcode Trackers tracker name udp://open.demonii.com:1337/announce udp://tracker.openbittorrent.com:80/announce udp://tracker.publicbt.com:80/announce udp://tracker.istole.it:80/announce Torrent compatible trackers list udp://open.demonii.com:1337/announce udp://tracker.openbittorrent.com:80/announce udp://tracker.publicbt.com:80/announce udp://tracker.istole.it:80/announce Locations name ExtraTorrent Mininova Torrent hash: cb3731aaf9c9c8e3108af55aa75e468ae12b716f All Comments audio vote 1 awful 2 3 4 5 6 7 8 9 10 best 0/10 video vote 1 awful 2 3 4 5 6 7 8 9 10 best 0/10 please, leave only comments related to that torrent Post as a guest Sign In reply reply . Permissions in this forum:. Sample info: Duration: 00:24:24.83, start: 0.000000, bitrate: 5410 kb/s Stream #0.0: Video: mpeg4, yuv420p, 1280x720 [PAR 1:1 DAR 16:9], 23.98 fps, 23.98 tbr, 23.98 tbn, 30k tbc Stream #0.1: Audio: mp3, 48000 Hz, 2 channels, s16, 192 kb/s. TV-JAPANRAW Gurren-Lagann 12 (1024x576 DivX5 11) avi in Anime 564.37 MB 1 8years 0 0 . Gurren Lagann - 27 - The Lights In The Sky Are Stars {CP}.avi in Anime 169.37 MB 1 7years 0 0 . 3 [BSS] Tengen Toppa Gurren Lagann The Movie - Lagann-hen [8A75A457][AnimeShout.com].avi in Anime 1.57 GB 1 6years 0 0 . BSS Tengen Toppa Gurren Lagann - 17 (xvid clockless)02B51BA8 avi in Anime 234.1 MB 1 8years 0 0 .

Capital The Story of Long Term Investment ExcellenceThe Sims Medieval [No CD] | checkedHeart Discography (1976 2007) [mp3@320]examples sap 2000 pdf-addsArtisteer_4_full_crack_rapidshare-addsMet Art Lada D Miraclesorganisational behaviour by stephen robbins 13th edition pdf.rar.isopsp dissidia 012 duodecim final fantasy isoJust 18. Adult magazine. September 2011xbox 360 emulator 3.2.6.rar bios mega



Mar 3 Mai - 23:12 (2016)
Publicité






Message Publicité
PublicitéSupprimer les publicités ?

Mar 3 Mai - 23:12 (2016)
Montrer les messages depuis:    
Répondre au sujet    =MnM's= Index du Forum » "JEU DU FORUM" » Trouvez le film Toutes les heures sont au format GMT + 2 Heures
Page 1 sur 1

 
Sauter vers: 

Index | Panneau d’administration | Creer un forum | Forum gratuit d’entraide | Annuaire des forums gratuits | Signaler une violation | Conditions générales d'utilisation
Powered by phpBB © 2001, 2005 phpBB Group
Design by Freestyle XL / Music Lyrics.Traduction par : phpBB-fr.com